Navigation on the site:

Free Full Download Winnie the Pooh 2011-DVDRip XviD-Vrxuniique



Apps | Graphics | Games | Movies | Tv Series | Music | Magazines | Ebooks | Mobile

Winnie the Pooh 2011-DVDRip XviD-Vrxuniique



Winnie the Pooh 2011-DVDRip XviD-Vrxuniique
Winnie the Pooh 2011-DVDRip XviD-Vrxuniique
IMDB Info
Language: English
1h 5mn | AVI | 640x352 | 23.976 fps | 128 kb/s | 48.0 KHz | 707 MB
Genre: Animation | Family
During an ordinary day in Hundred Acre Wood, Winnie the Pooh sets out to find some honey. Misinterpreting a note from Christopher Robin, Pooh convinces Tigger, Rabbit, Piglet, Owl, Kanga, Roo, and Eeyore that their young friend has been captured by a creature named "Backson" and they set out to save him.

Winnie the Pooh 2011-DVDRip XviD-Vrxuniique
General
Complete name : C:\Users\Jordan\Downloads\Winnie.the.Pooh.2011-DVDRip.XviD-Vrxuniique\Winnie the pooh xvid vrxuniique.avi
Format : AVI
Format/Info : Audio Video Interleave
File size : 700 MiB
Duration : 1h 5mn
Overall bit rate : 1 497 Kbps
Writing application : VirtualDubMod 1.5.10.2 (build 2540/release)
Writing library : VirtualDubMod build 2540/release

Video
ID : 0
Format : MPEG-4 Visual
Format profile : Advanced Simple@L5
Format settings, BVOP : 2
Format settings, QPel : No
Format settings, GMC : No warppoints
Format settings, Matrix : Default (MPEG)
Codec ID : XVID
Codec ID/Hint : XviD
Duration : 1h 5mn
Bit rate : 1 356 Kbps
Width : 624 pixels
Height : 352 pixels
Display aspect ratio : 16:9
Frame rate : 25.000 fps
Color space : YUV
Chroma subsampling : 4:2:0
Bit depth : 8 bits
Scan type : Progressive
Compression mode : Lossy
Bits/(Pixel*Frame) : 0.247
Stream size : 634 MiB (91%)
Writing library : XviD 1.2.1 (UTC 2008-12-04)

Audio
ID : 1
Format : MPEG Audio
Format version : Version 1
Format profile : Layer 3
Mode : Joint stereo
Mode extension : MS Stereo
Codec ID : 55
Codec ID/Hint : MP3
Duration : 1h 5mn
Bit rate mode : Variable
Bit rate : 128 Kbps
Channel(s) : 2 channels
Sampling rate : 48.0 KHz
Compression mode : Lossy
Delay relative to video : 2s 976ms
Stream size : 60.2 MiB (9%)
Alignment : Split accross interleaves
Interleave, duration : 24 ms (0.60 video frame)
Interleave, preload duration : 1506 ms
Writing library : LAME3.90.
Encoding settings : -m j -V 4 -q 2 -lowpass 17.6 --abr 128

Screenshot
Winnie the Pooh 2011-DVDRip XviD-Vrxuniique
Winnie the Pooh 2011-DVDRip XviD-Vrxuniique
Winnie the Pooh 2011-DVDRip XviD-Vrxuniique
Buy Premium Account From Me Now .I have Great and Newest Content to Share to You


Download From Filesonic

http://www.filesonic.com/file/1481532941/Keosoft90.Winnie.the.Pooh.2011.DVDRip.XviD.Vrxuniique.part1.rar
http://www.filesonic.com/file/1481532601/Keosoft90.Winnie.the.Pooh.2011.DVDRip.XviD.Vrxuniique.part2.rar

Download From Wupload

http://www.wupload.com/file/62425015/Keosoft90.Winnie.the.Pooh.2011.DVDRip.XviD.Vrxuniique.part1.rar
http://www.wupload.com/file/62425112/Keosoft90.Winnie.the.Pooh.2011.DVDRip.XviD.Vrxuniique.part2.rar


Related Articles:


free download Winnie the Pooh 2011-DVDRip XviD-Vrxuniique.Winnie the Pooh 2011-DVDRip XviD-Vrxuniique full from nitroflare rapidgator uploaded turbobit extabit ryushare openload littlebyte zippyshare.


Site Info:

This source is to facilitate web designers programmers coders etc. A big selection of themes scripts fonts icons vectors nulled php templates css cms psd modules plugins presets related to wordpress joomla lightroom networking hosting social media designed by the specialized teams like codecanyon themeforest graphicriver activeden envato mojo videohive pixeden creativemarket.
All the downloading links related to movies, games, tvshows, music and graphics are hosted on other sites like nitroflare, rapidgator, openload etc.

Sitemap | RSS | Contact US | DMCA Policy |