Navigation on the site:

Free Full Download Age Of The Dragons 2011 - BDRip XVID AC3 HQ Hive



Apps | Graphics | Games | Movies | Tv Series | Music | Magazines | Ebooks | Mobile

Age Of The Dragons 2011 - BDRip XVID AC3 HQ Hive




Age Of The Dragons 2011 - BDRip XVID AC3 HQ Hive



Age Of The Dragons 2011 BDRip XVID AC3 HQ Hive

Language: English
01:34:36 | AVI | 720x304 | 23.976 fps | 448 kb/s | 48.0 KHz | 1.56 GB
Genre: Action | Fantasy | Sci-Fi


Age of the Dragons is a re-imagining of Herman Melville's classic novel Moby Dick. Set in a mythical realm where Captain Ahab and crew hunt dragons for the vitriol that powers their world, Ishmael, a charismatic harpooner joins their quest. Ahab's adopted daughter Rachel, beautiful and tough, runs the hunting vessel. Ahab's obsession is to seek revenge on a great "White Dragon" that slaughtered his family when he was young and left his body scarred and mauled, drives the crew deeper into the heart of darkness. In the White Dragon's lair Ahab's secrets are revealed and Rachel must choose between following him on his dark quest or escaping to a new life with Ishmael.

Video: 720x304 @bitrate 1900 2pass
Audio: DTS to AC3 5.1 @448
Sample: yes included[/b]

General
Complete name : Age.Of.The.Dragons.2011.BDRip.XVID.AC3.HQ.Hive-CM8.avi
Format : AVI
Format/Info : Audio Video Interleave
File size : 1.54 GiB
Duration : 1h 34mn
Overall bit rate : 2 323 Kbps
Writing application : Nandub v1.0rc2
Writing library : Nandub build 1853/release

Video
ID : 0
Format : MPEG-4 Visual
Format profile : Advanced Simple@L5
Format settings, BVOP : Yes
Format settings, QPel : Yes
Format settings, GMC : No warppoints
Format settings, Matrix : Default (H.263)
Muxing mode : Packed bitstream
Codec ID : XVID
Codec ID/Hint : XviD
Duration : 1h 34mn
Bit rate : 1 866 Kbps
Width : 720 pixels
Height : 304 pixels
Display aspect ratio : 2.35:1
Frame rate : 23.976 fps
Color space : YUV
Chroma subsampling : 4:2:0
Bit depth : 8 bits
Scan type : Progressive
Bits/(Pixel*Frame) : 0.355
Stream size : 1.23 GiB (80%)
Writing library : XviD 1.2.1 (UTC 2008-12-04)

Audio
ID : 1
Format : AC-3
Format/Info : Audio Coding 3
Mode extension : CM (complete main)
Codec ID : 2000
Duration : 1h 34mn
Bit rate mode : Constant
Bit rate : 448 Kbps
Channel(s) : 6 channels
Channel positions : Front: L C R, Side: L R, LFE
Sampling rate : 48.0 KHz
Bit depth : 16 bits
Stream size : 303 MiB (19%)
Alignment : Split accross interleaves
Interleave, duration : 42 ms (1.00 video frame)
Interleave, preload duration : 500 ms

Danny Glover ... Ahab
Vinnie Jones ... Stubbs
Corey Sevier ... Ishmael
Sofia Pernas ... Rachel
Larry Bagby ... Flask
Kepa Kruse ... Queequeg (as John Kepa Kruse)
David Morgan ... Starbuck

SCREENSHOT :
Age Of The Dragons 2011 - BDRip XVID AC3 HQ Hive


Download Links:

Download From FileServe
http://www.fileserve.com/file/8YSeEZK/Age.Of.The.Dragons.2011.BDRip.XVID.AC3.HQ.Hive-CM8.part1.rar
http://www.fileserve.com/file/kVUawtY/Age.Of.The.Dragons.2011.BDRip.XVID.AC3.HQ.Hive-CM8.part2.rar
http://www.fileserve.com/file/E5hh8hd/Age.Of.The.Dragons.2011.BDRip.XVID.AC3.HQ.Hive-CM8.part3.rar
http://www.fileserve.com/file/cWm48MB/Age.Of.The.Dragons.2011.BDRip.XVID.AC3.HQ.Hive-CM8.part4.rar


Download From FileSonic
http://www.filesonic.com/file/360030861/Age.Of.The.Dragons.2011.BDRip.XVID.AC3.HQ.Hive-CM8.part1.rar
http://www.filesonic.com/file/360030901/Age.Of.The.Dragons.2011.BDRip.XVID.AC3.HQ.Hive-CM8.part2.rar
http://www.filesonic.com/file/360030941/Age.Of.The.Dragons.2011.BDRip.XVID.AC3.HQ.Hive-CM8.part3.rar
http://www.filesonic.com/file/360030971/Age.Of.The.Dragons.2011.BDRip.XVID.AC3.HQ.Hive-CM8.part4.rar


All links are same source and they are add to archive part same size.
You can download any part of archive from any server and can extract it without problem! PM me if links are dead, I will try to re-upload the file if I can!

Thanks you !

Related Articles:


free download Age Of The Dragons 2011 - BDRip XVID AC3 HQ Hive.Age Of The Dragons 2011 - BDRip XVID AC3 HQ Hive full from nitroflare rapidgator uploaded turbobit extabit ryushare openload littlebyte zippyshare.


Site Info:

This source is to facilitate web designers programmers coders etc. A big selection of themes scripts fonts icons vectors nulled php templates css cms psd modules plugins presets related to wordpress joomla lightroom networking hosting social media designed by the specialized teams like codecanyon themeforest graphicriver activeden envato mojo videohive pixeden creativemarket.
All the downloading links related to movies, games, tvshows, music and graphics are hosted on other sites like nitroflare, rapidgator, openload etc.

Sitemap | RSS | Contact US | DMCA Policy |