Navigation on the site:

Free Full Download Madagaskar 2 (Madagascar: Escape 2 Africa) - 720p HDTV x264 AC3 DUAL



Apps | Graphics | Games | Movies | Tv Series | Music | Magazines | Ebooks | Mobile

Madagaskar 2 (Madagascar: Escape 2 Africa) - 720p HDTV x264 AC3 DUAL




Madagaskar 2 (Madagascar: Escape 2 Africa) - 720p HDTV x264 AC3 DUAL



Madagaskar 2 (Madagascar: Escape 2 Africa) 720p HDTV x264 AC3 DUAL

Language: English
01:25:38 | MKV | 1280x720 | 23.976 fps | 128 kb/s | 48.0 KHz | 2.21 GB
Genre: Animation | Action | Adventure


The sequel to 2005's "Madagascar", in which New York Zoo animals, Alex the Lion, Marty the Zebra, Melman the Giraffe and Gloria the Hippo, still stranded on Madagascar, start to leave the island. All of a sudden, they land in the wilderness of Africa, where Alex meets the rest of his family, but has trouble communicating with them after spending so much time at the Central Park Zoo.

General
Unique ID : 213782498226769934296578728091536629925 (0xA0D502F125301B618BF85BE7C5F4A0A5)
Complete name : madagascar.2.720p.HDTV.x264.DUAL.AC3-BTRG.mkv
Format : Matroska
File size : 2.19 GiB
Duration : 1h 25mn
Overall bit rate : 3 653 Kbps
Encoded date : UTC 2011-03-23 10:01:27
Writing application : mkvmerge v4.6.0 ('Still Crazy After All These Years') built on Mar 10 2011 02:50:32
Writing library : libebml v1.2.0 + libmatroska v1.1.0

Video
ID : 1
Format : AVC
Format/Info : Advanced Video Codec
Format profile : High@L3.1
Format settings, CABAC : Yes
Format settings, ReFrames : 4 frames
Codec ID : V_MPEG4/ISO/AVC
Duration : 1h 25mn
Bit rate : 2 884 Kbps
Width : 1 280 pixels
Height : 720 pixels
Display aspect ratio : 16:9
Frame rate : 25.000 fps
Color space : YUV
Chroma subsampling : 4:2:0
Bit depth : 8 bits
Scan type : Progressive
Bits/(Pixel*Frame) : 0.125
Stream size : 1.68 GiB (77%)
Writing library : x264 core 114 r1913 5fd3dce

Audio #1
ID : 2
Format : AC-3
Format/Info : Audio Coding 3
Mode extension : CM (complete main)
Codec ID : A_AC3
Duration : 1h 25mn
Bit rate mode : Constant
Bit rate : 384 Kbps
Channel(s) : 2 channels
Channel positions : Front: L R
Sampling rate : 48.0 KHz
Bit depth : 16 bits
Compression mode : Lossy
Stream size : 235 MiB (11%)

Audio #2
ID : 3
Format : AC-3
Format/Info : Audio Coding 3
Mode extension : CM (complete main)
Codec ID : A_AC3
Duration : 1h 25mn
Bit rate mode : Constant
Bit rate : 384 Kbps
Channel(s) : 2 channels
Channel positions : Front: L R
Sampling rate : 48.0 KHz
Bit depth : 16 bits
Compression mode : Lossy
Stream size : 235 MiB (11%)

SCREENSHOT :
Madagaskar 2 (Madagascar: Escape 2 Africa) - 720p HDTV x264 AC3 DUAL


Download Links:

Download From FileServe
http://www.fileserve.com/file/Z2kYSwk/madagascar.2.720p.HDTV.x264.DUAL.AC3-BTRG.part1.rar
http://www.fileserve.com/file/D5aN8qc/madagascar.2.720p.HDTV.x264.DUAL.AC3-BTRG.part2.rar
http://www.fileserve.com/file/UzPppvp/madagascar.2.720p.HDTV.x264.DUAL.AC3-BTRG.part3.rar
http://www.fileserve.com/file/PkXNqMW/madagascar.2.720p.HDTV.x264.DUAL.AC3-BTRG.part4.rar
http://www.fileserve.com/file/bns7P44/madagascar.2.720p.HDTV.x264.DUAL.AC3-BTRG.part5.rar
http://www.fileserve.com/file/jMSerD4/madagascar.2.720p.HDTV.x264.DUAL.AC3-BTRG.part6.rar


Download From FileSonic
http://www.filesonic.com/file/360035201/madagascar.2.720p.HDTV.x264.DUAL.AC3-BTRG.part1.rar
http://www.filesonic.com/file/360035221/madagascar.2.720p.HDTV.x264.DUAL.AC3-BTRG.part2.rar
http://www.filesonic.com/file/360035251/madagascar.2.720p.HDTV.x264.DUAL.AC3-BTRG.part3.rar
http://www.filesonic.com/file/360035271/madagascar.2.720p.HDTV.x264.DUAL.AC3-BTRG.part4.rar
http://www.filesonic.com/file/360035291/madagascar.2.720p.HDTV.x264.DUAL.AC3-BTRG.part5.rar
http://www.filesonic.com/file/360035321/madagascar.2.720p.HDTV.x264.DUAL.AC3-BTRG.part6.rar


All links are same source and they are add to archive part same size.
You can download any part of archive from any server and can extract it without problem! PM me if links are dead, I will try to re-upload the file if I can!

Thanks you !

Related Articles:


free download Madagaskar 2 (Madagascar: Escape 2 Africa) - 720p HDTV x264 AC3 DUAL.Madagaskar 2 (Madagascar: Escape 2 Africa) - 720p HDTV x264 AC3 DUAL full from nitroflare rapidgator uploaded turbobit extabit ryushare openload littlebyte zippyshare.


Site Info:

This source is to facilitate web designers programmers coders etc. A big selection of themes scripts fonts icons vectors nulled php templates css cms psd modules plugins presets related to wordpress joomla lightroom networking hosting social media designed by the specialized teams like codecanyon themeforest graphicriver activeden envato mojo videohive pixeden creativemarket.
All the downloading links related to movies, games, tvshows, music and graphics are hosted on other sites like nitroflare, rapidgator, openload etc.

Sitemap | RSS | Contact US | DMCA Policy |