Navigation on the site:

Free Full Download Touched - DOCU Xvid (MBDAPIMP)



Apps | Graphics | Games | Movies | Tv Series | Music | Magazines | Ebooks | Mobile

Touched - DOCU Xvid (MBDAPIMP)




Touched - DOCU Xvid (MBDAPIMP)



Touched - DOCU Xvid (MBDAPIMP)

Language: English
1h 14min | AVI | 720 x 480 | 23.976 fps | 128 kb/s | 48.0 KHz | 716.32 MB
Genre: Documentary


Director Laurel Chiten travels to locations such as; the United States,
the United Kingdom, Italy, and Brazil, interviewing 'experiencers', those who claim
to have had contact with other worldly beings. This film also covers the work done
in the field of alien abduction by Dr John Mack,a Harvard psychiatrist and Pulitzer
Prize winner who has written several books on the subject.
Release Date.........: 2003
Genre................: Documentary
Source...............: DVD
Total Duration.......: 1h 14min
Format...............: AVI
Codec................: Xvid
Resolution...........: 720 x 480

File info
Format/Info : Audio Video Interleave
File size : 694 MiB
Overall bit rate : 1 311 Kbps
Writing application : Nandub v1.0rc2
Writing library : Nandub build 1853/release

Video
ID : 0
Format : MPEG-4 Visual
Format profile : Advanced Simple@L5
Format settings, BVOP : Yes
Format settings, QPel : No
Format settings, GMC : No warppoints
Format settings, Matrix : Default (MPEG)
Codec ID : XVID
Codec ID/Hint : XviD
Duration : 1h 14mn
Bit rate : 1 161 Kbps
Display aspect ratio : 3:2
Frame rate : 29.970 fps
Standard : NTSC
Color space : YUV
Chroma subsampling : 4:2:0
Bit depth : 8 bits
Scan type : Progressive
Compression mode : Lossy
Bits/(Pixel*Frame) : 0.112
Stream size : 615 MiB (89%)
Writing library : XviD 1.1.2 (UTC 2006-11-01)

Audio
ID : 1
Format : MPEG Audio
Format version : Version 1
Format profile : Layer 3
Mode : Joint stereo
Mode extension : MS Stereo
Codec ID : 55
Codec ID/Hint : MP3
Duration : 1h 14mn
Bit rate mode : Variable
Bit rate : 135 Kbps
Minimum bit rate : 32.0 Kbps
Channel(s) : 2 channels
Sampling rate : 48.0 KHz
Compression mode : Lossy
Stream size : 71.8 MiB (10%)
Alignment : Aligned on interleaves
Interleave, duration : 24 ms (0.72 video frame)
Interleave, preload duration : 402 ms
Writing library : LAME3.96r
Encoding settings : -m j -V 2 -q 3 -lowpass 19 --vbr-old -b 32

SCREENSOHT :
Touched - DOCU Xvid (MBDAPIMP)


Download Links:

Download From FileServe
http://www.fileserve.com/file/JZghBeF/Touched.part1.rar
http://www.fileserve.com/file/PfDAPwy/Touched.part2.rar
http://www.fileserve.com/file/BJEyhyt/Touched.part3.rar

Download From FileSonic
http://www.filesonic.com/file/43649339/Touched.part1.rar
http://www.filesonic.com/file/43649327/Touched.part2.rar
http://www.filesonic.com/file/43649147/Touched.part3.rar


Thank you!

Single Link
Download Now

Related Articles:


free download Touched - DOCU Xvid (MBDAPIMP).Touched - DOCU Xvid (MBDAPIMP) full from nitroflare rapidgator uploaded turbobit extabit ryushare openload littlebyte zippyshare.


Site Info:

This source is to facilitate web designers programmers coders etc. A big selection of themes scripts fonts icons vectors nulled php templates css cms psd modules plugins presets related to wordpress joomla lightroom networking hosting social media designed by the specialized teams like codecanyon themeforest graphicriver activeden envato mojo videohive pixeden creativemarket.
All the downloading links related to movies, games, tvshows, music and graphics are hosted on other sites like nitroflare, rapidgator, openload etc.

Sitemap | RSS | Contact US | DMCA Policy |