Navigation on the site:

Free Full Download Metal Method - Speed Kills with Michael Angelo Batio



Apps | Graphics | Games | Movies | Tv Series | Music | Magazines | Ebooks | Mobile

Metal Method - Speed Kills with Michael Angelo Batio



Metal Method - Speed Kills with Michael Angelo Batio

Metal Method - Speed Kills with Michael Angelo Batio
English | DVD5 | VOB | MPEG2 7573kbps | 720x480 | 29.97fps | 58 mins | AC3 stereo 192kbps | 3.54 GB

“Speed Kills 2010” instructional DVD and on screen booklet by Michael Angelo Batio. Speed Kills 2010 by Michael Angelo Batio is the updated version of Michael’s classic. Speed Kills instructional program. Speed Kills 2010 is designed to help you play faster, better and with more precision! Speed Kills 2010 also features Michael’s amazing song “Time Traveler.” Speed Kills 2010 includes right hand picking close-ups on screen (picture in picture) along with the fret board hand. All exercises, explanations and examples are marked with dozens of detailed chapters.

These chapters allow you to find any section instantly. Animated TAB files are included on the DVD for every exercise as well as additional information you can access on your computer.

Mediainfo:

Format : MPEG-PS
File size : 1 024 MiB
Duration : 17mn 42s
Overall bit rate : 8 086 Kbps
Video #224
ID : 224 (0xE0)
Format : MPEG Video
Format version : Version 2
Format profile : Main@Main
Format settings, Matrix : Default
Duration : 17mn 42s
Bit rate mode : Constant
Bit rate : 7 573 Kbps
Nominal bit rate : 7 754 Kbps
Width : 720 pixels
Height : 480 pixels
Display aspect ratio : 16:9
Frame rate : 29.970 fps
Standard : NTSC
Colorimetry : 4:2:0
Scan type : Interlaced
Scan order : Bottom Field First
Bits/(Pixel*Frame) : 0.731
Stream size : 959 MiB (94%)
Audio #128
ID : 128 (0x80)
Format : AC-3
Format/Info : Audio Coding 3
Duration : 17mn 42s
Bit rate mode : Constant
Bit rate : 192 Kbps
Channel(s) : 2 channels
Channel positions : L R
Sampling rate : 48.0 KHz
Video delay : -222ms
Stream size : 24.3 MiB (2%)

Download


http://extabit.com/file/278ty9bjkw5gy/Metal_Method_Speed_Kills.part1.rar
http://extabit.com/file/278ty9bjkw5c2/Metal_Method_Speed_Kills.part2.rar
http://extabit.com/file/278ty9bjp9apu/Metal_Method_Speed_Kills.part3.rar
http://extabit.com/file/278ty9bjkwbrm/Metal_Method_Speed_Kills.part4.rar
or
http://uploaded.net/file/ad464qld/Metal_Method_Speed_Kills.part1.rar
http://uploaded.net/file/p7g4u151/Metal_Method_Speed_Kills.part2.rar
http://uploaded.net/file/an7ugihh/Metal_Method_Speed_Kills.part3.rar
http://uploaded.net/file/0stayhil/Metal_Method_Speed_Kills.part4.rar


Related Articles:


free download Metal Method - Speed Kills with Michael Angelo Batio.Metal Method - Speed Kills with Michael Angelo Batio full from nitroflare rapidgator uploaded turbobit extabit ryushare openload littlebyte zippyshare.


Site Info:

This source is to facilitate web designers programmers coders etc. A big selection of themes scripts fonts icons vectors nulled php templates css cms psd modules plugins presets related to wordpress joomla lightroom networking hosting social media designed by the specialized teams like codecanyon themeforest graphicriver activeden envato mojo videohive pixeden creativemarket.
All the downloading links related to movies, games, tvshows, music and graphics are hosted on other sites like nitroflare, rapidgator, openload etc.

Sitemap | RSS | Contact US | DMCA Policy |