Navigation on the site:

Free Full Download Kelby Training - Mastering HDR in Photoshop CS5



Apps | Graphics | Games | Movies | Tv Series | Music | Magazines | Ebooks | Mobile
Ad1


Kelby Training - Mastering HDR in Photoshop CS5



Kelby Training - Mastering HDR in Photoshop CS5

Kelby Training - Mastering HDR in Photoshop CS5
English | FLV | VP6 1000kbps | 852x480 | 30fps | 2h 07mins | MP3 stereo 128kbps | 961 MB

HDR is one of the hottest trends in digital photography. And now Photoshop CS5 has an entirely new set of features aimed at getting you great HDR photos right out of Photoshop (with no 3rd party plug-ins). In this course, HDR Pro Matt Kloskowski shows you how to put those new features to work to create some killer HDR photos.

01 Introduction 1:55
02 What is HDR? 3:32
03 Shooting HDR Photos 5:11
04 How Many Photos Do You Really Need? 2:51
05 Photoshop HDR Pro Quickstart 7:41
06 Edge Glow Settings 6:43
07 Tone and Detail Settings 5:23
08 Color and Curves 3:43
09 The Deghosting Controls 4:00
10 Post Processing using Adobe Camera Raw 6:10
11 Finishing in Photoshop 5:59
12 HDR Settings for the Surreal Fantasy Style 11:27
13 HDR Night Photos 13:06
14 HDR with a Moving Subject 11:14
15 Pseudo HDR From Just One Photo 10:24
16 HDR From Start to Finish with Lightroom 13:29
17 HDR From Start to Finish with Bridge 13:52
18 Conclusion 0:45

Mediainfo:

Format : Flash Video
File size : 76.9 MiB
Duration : 13mn 51s
Overall bit rate : 775 Kbps
Encoded date : Fri Apr 9 16:27:08 2010
Writing application : Paul Wilder / Sorenson Squeeze / Sorenson Squeeze
Video
Format : VP6
Duration : 13mn 51s
Bit rate : 1 000 Kbps
Width : 852 pixels
Height : 480 pixels
Display aspect ratio : 16:9
Frame rate : 30.000 fps
Bits/(Pixel*Frame) : 0.082
Stream size : 99.1 MiB
Audio
Format : MPEG Audio
Format version : Version 1
Format profile : Layer 3
Duration : 13mn 51s
Bit rate mode : Constant
Bit rate : 128 Kbps
Channel(s) : 2 channels
Sampling rate : 44.1 KHz
Resolution : 16 bits
Stream size : 12.7 MiB (17%)

Download

http://ul.to/iigqno65/Mastering_HDR_in_Photoshop_CS5.part05.rar
http://ul.to/sox82oom/Mastering_HDR_in_Photoshop_CS5.part04.rar
http://ul.to/0kzer6qt/Mastering_HDR_in_Photoshop_CS5.part01.rar
http://ul.to/66qizt2h/Mastering_HDR_in_Photoshop_CS5.part06.rar
http://ul.to/22v5g2cq/Mastering_HDR_in_Photoshop_CS5.part07.rar
http://ul.to/mr8u9u7u/Mastering_HDR_in_Photoshop_CS5.part09.rar
http://ul.to/qv0ci6no/Mastering_HDR_in_Photoshop_CS5.part08.rar
http://ul.to/gumd0wle/Mastering_HDR_in_Photoshop_CS5.part02.rar
http://ul.to/k3m5or4u/Mastering_HDR_in_Photoshop_CS5.part03.rar
http://ul.to/7vmh3z3w/Mastering_HDR_in_Photoshop_CS5.part10.rar
or
http://letitbit.net/download/12630.105d6fda32b53c745447214523b2/Mastering_HDR_in_Photoshop_CS5.part09.rar.html
http://letitbit.net/download/77422.7e0fe7df9330b7cf6c7679225c88/Mastering_HDR_in_Photoshop_CS5.part08.rar.html
http://letitbit.net/download/10931.17ae22a0f1538a79114459ff0220/Mastering_HDR_in_Photoshop_CS5.part07.rar.html
http://letitbit.net/download/48713.47baa26dd23949b4b4c94c5962bd/Mastering_HDR_in_Photoshop_CS5.part06.rar.html
http://letitbit.net/download/90972.9f952630fc03e8d435647fb0d7f8/Mastering_HDR_in_Photoshop_CS5.part05.rar.html
http://letitbit.net/download/65493.65a1415be1f0a11e21a96e73a567/Mastering_HDR_in_Photoshop_CS5.part04.rar.html
http://letitbit.net/download/87849.8d7e700d2c1c60dc80d7f6092c59/Mastering_HDR_in_Photoshop_CS5.part03.rar.html
http://letitbit.net/download/74502.7b31f4bc5aa3a8666bb0fa3dbb90/Mastering_HDR_in_Photoshop_CS5.part02.rar.html
http://letitbit.net/download/13106.17c796738df60007dd318ac7bfbb/Mastering_HDR_in_Photoshop_CS5.part10.rar.html
http://letitbit.net/download/42797.4c8d3cad2b3587b44419990c3aff/Mastering_HDR_in_Photoshop_CS5.part01.rar.html


Ad2

Related Articles:


free download Kelby Training - Mastering HDR in Photoshop CS5.Kelby Training - Mastering HDR in Photoshop CS5 full from nitroflare rapidgator uploaded turbobit extabit ryushare openload littlebyte zippyshare.


Site Info:

This source is to facilitate web designers programmers coders etc. A big selection of themes scripts fonts icons vectors nulled php templates css cms psd modules plugins presets related to wordpress joomla lightroom networking hosting social media designed by the specialized teams like codecanyon themeforest graphicriver activeden envato mojo videohive pixeden creativemarket.
All the downloading links related to movies, games, tvshows, music and graphics are hosted on other sites like nitroflare, rapidgator, openload etc.

Sitemap | RSS | Contact US | DMCA Policy |