Navigation on the site:

Free Full Download Atelier creatif avec Photoshop: Vaches volantes



Apps | Graphics | Games | Movies | Tv Series | Music | Magazines | Ebooks | Mobile

Atelier creatif avec Photoshop: Vaches volantes



Atelier creatif avec Photoshop: Vaches volantes

Atelier creatif avec Photoshop : Vaches volantes
2011 | French | MP4 | 1280x720 | 2 441 Kbps 29.970 fps | MP3 256 Kbps | Total Time: 03:00:00 | 2.37 Gb
Genre: eLearning | Studio: video2brain | Subtitles: No

Le compositing avec Photoshop CS5

Dans cet atelier creatif, vous aller creer une mise en scene sous Photoshop CS5 Extended a partir de plusieurs images simples et d?objets 3D. Photomerge, objets 3D, harmonisation de la colorimetrie et de la lumiere, detourage, masques de fusion, calques de reglage, travail de l eclairage, etc. sont au programme de cet atelier detonnant qui va vous apprendre a maitriser le montage et le trucage d?images dans Photoshop CS5 Extended.
Vos formateurs: Franck Petiteau, Uli Staiger

Date de parution: 23 aout 2011

Duree: 3h

Conditions requises
Connexion Internet DSL
Navigateur actuel avec le plug-in Flash
Resolution d ecran minimum : 1024x768
Carte son, haut-parleurs ou casque d ecoute
Pentium4 a partir de 2,6 GHz ou bien G4 a partir de 1 GHz
Bonus : Fichiers source
Contenu :
Preparation du compositing

Video d'introduction 03:52

Charger les images dans Mini Bridge 05:24

Creer le paysage a partir de plusieurs images

Creer un espace de travail personnalise 05:23

Retouche d'images 02:19

Photomerge 03:23

Remplissage de zones non definies en fonction du contenu 02:44

Mise a l'echelle des fichiers 02:53

Augmentation des contrastes locaux avec le filtre d'accentuation. 04:08

Comprendre la creation d'un calque neutre 04:25

Peindre de la lumiere 03:22

Peindre des ombres 03:17

Coloriser les montagnes 02:05

Preparer le pinceau melangeur 03:24

Peindre des nuages 03:33

Les rochers et la prairie

Importation et masquage des rochers 05:17

Mettre en place la prairie 02:52

Modifier la couleur de la prairie 03:54

Peindre les brins d'herbe 05:54

Peindre des ombres 03:05

Masquer le poteau 03:07

Mettre en place le paturage 05:01

La vache

Creer un pinceau pour le pelage de la vache 05:20

Les contours 06:06

Grossir les yeux de la vache 04:01

Mettre la vache a l'echelle et la placer sur la prairie 03:55

Peindre des ombres 05:29

Augmenter l'exposition de lumiere de la prairie 03:28

Modifier la valeur des tons en fonction de la lumiere 04:07

Augmentation de la plasticite 03:22

Travailler les fichiers 3D dans Photoshop

Comprendre les preferences 3D 04:24

Positionner le ballon 05:59

Modifier la distance focale 03:19

Mettre en place la source de lumiere 3D 05:17

Gerer la brillance de la lumiere 04:31

Creer une reflexion 04:03

Lancer de rayon 04:27

Completer et terminer le ballon

Remplacer le fichier 3D 03:19

Placer les cables 05:35

Ajouter un reflet de lumiere 03:16

Ajouter des flammes au bruleur 06:12

Ajouter d'autres ballons dans votre montage 02:44
MediaInfo - FR_178_01_01.mp4
Complete name : D:\xxdata2\FR_178_01_01.mp4
Format : Flash Video
File size : 78.4 MiB
Duration : 3mn 57s
Overall bit rate : 2 765 Kbps

Video
Format : Sorenson Spark
Codec ID : 2
Duration : 3mn 57s
Bit rate : 2 441 Kbps
Width : 1 280 pixels
Height : 720 pixels
Display aspect ratio : 16:9
Frame rate mode : Constant
Frame rate : 29.970 fps
Bit depth : 8 bits
Bits/(Pixel*Frame) : 0.088
Stream size : 69.2 MiB (88%)

Audio
Format : MPEG Audio
Format version : Version 1
Format profile : Layer 3
Mode : Joint stereo
Mode extension : MS Stereo
Codec ID : 2
Codec ID/Hint : MP3
Duration : 3mn 57s
Bit rate mode : Constant
Bit rate : 256 Kbps
Channel(s) : 2 channels
Sampling rate : 44.1 KHz
Compression mode : Lossy
Stream size : 7.26 MiB (9%)
Writing library : LAME3.98.2

Atelier creatif avec Photoshop: Vaches volantes

Download ( From Filejungle):
http://www.filejungle.com/f/CeVUBh
http://www.filejungle.com/f/Zm4paG
http://www.filejungle.com/f/6wShpk
http://www.filejungle.com/f/cUVEvf
http://www.filejungle.com/f/VyCEUF
http://www.filejungle.com/f/t2J6dJ
http://www.filejungle.com/f/jQEFap
http://www.filejungle.com/f/9SbRsy

Download ( From Filepost):
http://filepost.com/files/ca8d933d/V2BACAPVV.part1.rar
http://filepost.com/files/ce116973/V2BACAPVV.part2.rar
http://filepost.com/files/83b12456/V2BACAPVV.part3.rar
http://filepost.com/files/88dda8e9/V2BACAPVV.part4.rar
http://filepost.com/files/4937a99d/V2BACAPVV.part6.rar
http://filepost.com/files/aa479dce/V2BACAPVV.part7.rar
http://filepost.com/files/ad56a58a/V2BACAPVV.part8.rar

Download ( From Fileserve):
http://www.fileserve.com/file/DQCCaHa
http://www.fileserve.com/file/Ba4ReXf
http://www.fileserve.com/file/W3fa6AR
http://www.fileserve.com/file/E6kxgHJ
http://www.fileserve.com/file/AmXgVgj
http://www.fileserve.com/file/utMpBNm
http://www.fileserve.com/file/YPuzqwX
http://www.fileserve.com/file/tNtSBmv

Download ( From Filesonic):[b](Recommand Buy FileSonic Premium Account For Fastest Download)
http://www.filesonic.com/file/4080528275
http://www.filesonic.com/file/4080538305
http://www.filesonic.com/file/4080534645
http://www.filesonic.com/file/4080538525
http://www.filesonic.com/file/4080533445
http://www.filesonic.com/file/4080531255
http://www.filesonic.com/file/4080537095
http://www.filesonic.com/file/4080524995

Download ( From Uploading):
http://uploading.com/files/d196ab4a/V2BACAPVV.part1.rar/
http://uploading.com/files/c176af57/V2BACAPVV.part2.rar/
http://uploading.com/files/1377b1c4/V2BACAPVV.part3.rar/
http://uploading.com/files/1d9dce3b/V2BACAPVV.part4.rar/
http://uploading.com/files/9555e3d2/V2BACAPVV.part5.rar/
http://uploading.com/files/186b633f/V2BACAPVV.part6.rar/
http://uploading.com/files/7fdmm326/V2BACAPVV.part7.rar/
http://uploading.com/files/b29mm9fc/V2BACAPVV.part8.rar/


Related Articles:


free download Atelier creatif avec Photoshop: Vaches volantes.Atelier creatif avec Photoshop: Vaches volantes full from nitroflare rapidgator uploaded turbobit extabit ryushare openload littlebyte zippyshare.


Site Info:

This source is to facilitate web designers programmers coders etc. A big selection of themes scripts fonts icons vectors nulled php templates css cms psd modules plugins presets related to wordpress joomla lightroom networking hosting social media designed by the specialized teams like codecanyon themeforest graphicriver activeden envato mojo videohive pixeden creativemarket.
All the downloading links related to movies, games, tvshows, music and graphics are hosted on other sites like nitroflare, rapidgator, openload etc.

Sitemap | RSS | Contact US | DMCA Policy |